Thank you really much in advance! 11 comments. 24 bit / 96 kHz Hi-Resolution Free FLAC. 1 kHz (Tracks) Performer: Pia Fraus Album: Now You Know It Still Feels the Same Published: 2021 Genre: Alternative, Indie Pop, Dream Pop, Shoegaze File Size: 579 Mb. 24 bit / 96 kHz Hi-Resolution Free FLAC. I know of Bugs! And Melon but I’m having a hard time getting a working account that also has the proper streaming plan enabled. FLAC K-Pop MP3 Old Hits Single [Single] Wonder Girls – So Hot. Fireplace 08. 30] Hyomin - Make Up (flac) [2017. Pink Up, Karachi, Pakistan. 3 comments. [Single] KEY - Hate that… (feat. Don't miss out. J-Pop Download. com/user/sharanelani?sub_confirmation=1 MP3 files are lossy. Guardians of the Galaxy Awesome Mix. & [01:19] 02. [Single] KEY – Hate that… (feat. 04] WJSN - From. We regularly post links to albums, singles, clips, concerts and television shows. cue), lossless » Восточноазиатская поп. Where to download K-Pop songs in mp3/MV/Videos/TV Shows? Hey folks, here is the list of the websites/blogs that you can download your favorite Kpop songs in Mp3/MV/Videos/TV Shows for FREE. By admin On April 8, 2018. Display results as : Posts Topics. cue), lossless Posted by xPerf3cti0n in Music > Lossless. FLAC stands for Free Lossless Audio Codec, an audio format similar to MP3, but lossless, meaning that audio is compressed in FLAC without any loss in quality. PTT (Paint The Town) [03:21] 03. But if someone wants them, I could share them. BAND-MAID - Sense(TV Size Ver. 坂本真綾 - everywhere Released: 2016 Genre: Pop Bitrate: FLAC 24bit 96khz & MP3 V0 VBR RAR / 2. Some artists and services choose to put their music up for free, and they do so in a way that allows you to download it legally. ONEW - You Are My Spring OST Part 7 [FLAC 24bit + MP3 320 / WEB] August 7, 2021. Comments Off on Hello Venus - The First Mini Album - Venus [FLAC 24bit. Pia Fraus - Now You Know It Still Feels the Same (2021) Hi-Res. FLAC KPOP - Portal. Don't miss out. Our users have posted a total of 2975 messages. com/user/sharanelani?sub_confirmation=1 MP3 files are lossy. GFRIEND - 여자친구 The 6th Mini Album 'Time for the moon night' [FLAC 24bit/48kHz] Posted 4 months ago May 8, 2021. 27] MP3 320KBPS FLAC / Lossless / WEB / 24bit/48kHz - 2021 47. Ellie Goulding - 2015 - Delirium [Target Deluxe Edition] - FLAC [ Freak37 ] Posted by Freak37 in Music > Lossless. [KPOP][Single] HYNN - Weekends without you (Duet with 김재환) (2021. Fights acne - Makes skin smooth, soft and flawless - Improves skin texture - Clears out pigmentation - Helps with uneven skin tone - Makes your makeup glide on better. se - MUSIC 音楽 - [KPOP][Single] TWICE - Taste of Love (2021. Awards Team Application You must be able to: 1) Be 18+! 2) Dedicate quite some time per day to assign badges to members who requested for badges. 23] August 30, 2021 [Video] Patoranking - Black Girl Magic August 30, 2021 Bella Shmurda x Popcaan - So Cold August 30, 2021. 24 bit / 96 kHz Hi-Resolution Free FLAC. Anonymouz - Essence [FLAC / 24bit Lossless / WEB] [2021. I'd still like the support the artists I enjoy listening to through. The post 三浦透子 (Toko Miura) - 通過点 [FLAC 24bit + MP3 320 / WEB] appeared first on. Dance On My Own [02:37]. Hi-Res / Pop / Indie / Alternative. 19 MB :: flac • bitrate: min 544. Thanks for visiting. DOWNLOAD MP3-320kbps, FLAC, WAV, ITUNES PLUS AAC M4A Korean Music. 25 from 10000. 06 Tracklist: 1. xyz Lossless & Hi-Res Music Download. 10)[MP3+Flac] [Album] TREASURE - The First Step Treasure Effect…. 24 bit / 96 kHz Hi-Resolution Free FLAC. Artist: Kang Daniel / 강다니엘, Title: ParanoiaGenre: K-Pop, DanceRelease Date: 2021. DOWNLOAD MP3-320kbps, FLAC, WAV, ITUNES PLUS AAC M4A Korean Music. Our users have posted a total of 2975 messages. cue), lossless Posted by xPerf3cti0n in Music > Lossless. The newest registered user is Raezel. All videos are presented in high quality - DVD, Blu-ray and HDTV. Bedless Bones-After Malaise-Limited Edition-CD-FLAC-2021-FWYH Infacted Allstars-Children - A Tribute To Robert Miles-Limited Edition-CDEP-FLAC-2021-FWYH VA - Masters Of Hardcore Chapter XLIII-Magnum Opus-(CLDM2021025)-2CD-2021-SRG. 1 (MP3) Aug 31, 2021. Hello Venus - The First Mini Album - Venus [FLAC 24bit/96kHz] Posted 3 months ago May 24, 2021. We live in San Gabriel Valley, California. 좋은 자료에는 "좋아요!" / 광고, 불량 자료는 "별로에요"를 눌러주세요!. Viajando 03. Download lossless music in flac, ape, wav formats. The recording is a binaural recording intended especially for headphone use. Related Posts: [KPOP][Album] BLACKPINK 2021 ‘THE SHOW’ LIVE… [KPOP][Album] LOONA – & (2021. Pink Up, Karachi, Pakistan. I've been looking to find a place where I can stream/buy FLAC files of Kpop songs. We have 838 registered users. David Bowie - Nothing has changed. Dance On My Own [02:37]. The post 三浦透子 (Toko Miura) - 通過点 [FLAC 24bit + MP3 320 / WEB] appeared first on. Bedless Bones-After Malaise-Limited Edition-CD-FLAC-2021-FWYH Infacted Allstars-Children – A Tribute To Robert Miles-Limited Edition-CDEP-FLAC-2021-FWYH VA – Masters Of Hardcore Chapter XLIII-Magnum Opus-(CLDM2021025)-2CD-2021-SRG. FLAC stands for Free Lossless Audio Codec, an audio format similar to MP3, but lossless, meaning that audio is compressed in FLAC without any loss in quality. cue, log,covers) Total Size: 6,15 Gb. Who is online? In total there is 0 user online :: 0 Registered, 0 Hidden and 0 Guests :: 1 Bot. (KPop/JPop) Girls' Generation (SNSD) - Дискография (16 Альбомов, 10 Синглов), 2007-2015, FLAC (tracks+. Don't miss out. cue), lossless » Восточноазиатская поп. Some artists and services choose to put their music up for free, and they do so in a way that allows you to download it legally. 0 % Test CRC 069D5E11 Copy CRC 069D5E11 Track not present in AccurateRip database Copy OK Track 18 Filename D:\Music\BTS - Map of the Soul - 7 (2020) [FLAC]\18 - We are Bulletproof - the. 14)[MP3+Hi-Res FLAC] Posted by jpn2 on 07/18/2021 Leave a comment (0) Go to comments 1. believer 7. ) Audio Format: FLAC Lossless / MP3 320K / RAR Release Date: 2021. & [01:19] 02. [FLAC / 24bit Lossless / WEB] [2021. Related Posts: [KPOP][Album] BLACKPINK 2021 'THE SHOW' LIVE… [KPOP][Album] LOONA - & (2021. We regularly post links to albums, singles, clips, concerts and television shows. If you want FLAC downloads you either have to purchase individual songs at 1,800krw (~$1. TAEYEON) (MP3 + iTunes Plus AAC M4A) August 30, 2021. [Single] KEY – Hate that… (feat. ) Audio Format: FLAC Lossless / MP3 320K / RAR Release Date: 2021. Artist: Girls' Generation (SNSD) Title: Discography Year Of Release: 2007-2017 Genre: Kpop/ Jpop Quality: FLAC (Tracks, Image+. admin August 29, 2021. It is available in multiple formats on that page, including FLAC. Sense(TV Size Ver. 24 bit / 96 kHz Hi-Resolution Free FLAC. Green Day - American Idiot (2004) [24bit 192kHz FLAC] Download. Period! The Criteria Sessions (2014/2020) [24bit FLAC]. 2 [FLAC / 24bit Lossless / WEB] [2021. We regularly post links to albums, singles, clips, concerts and television shows. I'd still like the support the artists I enjoy listening to through. BLACKPINK IS THE. FLAC K-Pop MP3 Old Hits Single [Single] Wonder Girls – So Hot. 02] THE REAL _ N. cue), lossless Posted by xPerf3cti0n in Music > Lossless. So my 12 year old is into K-pop. Some artists and services choose to put their music up for free, and they do so in a way that allows you to download it legally. * Ektoplazm is a source for awesome quality electronic music. cue), lossless » Восточноазиатская поп. cue, log,covers) Total Size: 6,15 Gb. Download FLAC Download MP3. No users have a birthday today. LIBRARY OF KPOP FLAC SONG. * Ektoplazm is a source for awesome quality electronic music. Download Kpop Songs in FLAC format! FLAC KPOP. So my 12 year old is into K-pop. I know of Bugs! And Melon but I'm having a hard time getting a working account that also has the proper streaming plan enabled. Love Song Download Hi-Res 24bit/96kHz Uru - Love Song (pre-release) [24 ⁄ 96]. up no more 4. On this site you can download Japanese and Korean music for free. bring it back 6. BTS - You Never Walk Alone June 4, 2021 Lossless. 3 GB; RAR / 149 MB Tracklist: Download →. Comments Off on Hello Venus - The First Mini Album - Venus [FLAC 24bit. 通過点 Download Hi-Res 24bit/96kHz Toko Miura - Tsuukaten [24 ⁄ 96]. She enjoys dancing & creating K-pop journals / scrapbooks. We have 838 registered users. [Album](DVDISO+FLAC) Suzuko Mimori 三森すずこ - 好きっ Suki (Download)[2014. By admin On April 8, 2018. 3) Make time to change badges according to the. DOWNLOAD MP3-320kbps, FLAC, WAV, ITUNES PLUS AAC M4A Korean Music. Green Day - American Idiot (2004) [24bit 192kHz FLAC] Download. Awards Team Application You must be able to: 1) Be 18+! 2) Dedicate quite some time per day to assign badges to members who requested for badges. k-Pop Hi-Res Digital Download. xyz Lossless & Hi-Res Music Download. wav Pre-gap length 0:00:01. Display results as : Posts Topics. Free Lossless Audio Codec, or simply FLAC for short, is a music file format that gives bit-perfect CD copies at only a fraction of the regular size. I’ve been looking to find a place where I can stream/buy FLAC files of Kpop songs. 60) or entire albums (cost varies). Hello, I've been heavily into kpop for the past two 2 years and I've recently gotten into HiFi listening. Sadao Watanabe - Viajando (1998) 01. KINDA BLUE, Hwa Sa - I can't make you love me [FLAC 24bit + MP3 320 / WEB] August 7, 2021. [FLAC 24bit/48kHz] Hi-Res Digital Download. [Single] KEY – Hate that… (feat. J-Pop Download. 3 comments. 癒月ちょこ (Yuzuki Choco) – ChocoLove [FLAC 24bit + MP3 320 / WEB] 藤井風 (Kaze Fujii) – 燃えよ [FLAC 24bit + MP3 320 / WEB] 遊助 (Yusuke) – こむぎ [FLAC 24bit + MP3 320 / WEB]. Lossless; Hi-Res Digital Download; SACD; Music Videos & Live Concerts; Tag: Kpop BTS - The Most Beautiful Moment In Life : Young Forever June 15, 2021 Lossless. …read more ». The album’s lead single is the title track FIVE. All music Pia Fraus. Download Kpop Songs in FLAC format! FLAC KPOP. David Bowie - Nothing has changed. Doce Seducao (instrumental version) 09. 坂本真綾 - everywhere Released: 2016 Genre: Pop Bitrate: FLAC 24bit 96khz & MP3 V0 VBR RAR / 2. 10)[MP3+Flac] [Album] TREASURE - The First Step Treasure Effect…. 02] THE REAL _ N. …read more ». hell in heaven 3. It works with a lot of smartphones (including the iPhone), and PMP or portable music player models. Download RAR/MP3 320kbps/FLAC lossless/AAC 256kbps/ALAC lossless/ZIP. fm has a free music section * The Fr. No users have a birthday today. Where to download K-Pop songs in mp3/MV/Videos/TV Shows? Hey folks, here is the list of the websites/blogs that you can download your favorite Kpop songs in Mp3/MV/Videos/TV Shows for FREE. Flac kpop Flac kpop. 8 % Extraction speed 2. 12)[MP3+Flac]. Love Song Download Hi-Res 24bit/96kHz Uru - Love Song (pre-release) [24 ⁄ 96]. It was released by. And I really want her to get out there and make some new friends. (KPop, KRock) [CD, WEB] Dreamcatcher (드림캐쳐) - Discography (10 releases) - 2017-2019, FLAC (tracks+. WOW [02:58] 04. All videos are presented in high quality – DVD, Blu-ray and HDTV. k-Pop Hi-Res Digital Download. Green Day - American Idiot (2004) [24bit 192kHz FLAC] Download. (The Very Best of Bowie) [3CD] - 2014, FLAC (tracks+. 02] THE REAL _ N. shot clock 10. 12] 선물 (Present) (FLAC) [2017. In total there is 0 user online :: 0 Registered, 0 Hidden and 0 Guests :: 1 Bot Most users ever online was 9 on Sun Apr 04, 2021 6:13 am Registered Users: None Bots : b ing No users have a birthday today. We regularly post links to albums, singles, clips, concerts and television shows. Guns N' Roses - Appetite For Destruction. David Bowie - Nothing has changed. Download J-pop Music Mp3 Rar Flac for Free! Click here in Jpop Libs. Thanks for visiting. If anyone has at least something I would really appreciate it! I have them all in MP3, so I don't need them. Viajando 03. TAEYEON – Purpose – The 2nd Album 29 October, 2019 [Mini Album] MONSTA X – ‘FOLLOW’ FIND YOU (Mp3) 28 October, 2019. 24 bit / 96 kHz Hi-Resolution Free FLAC. 28)[MP3+Hi-Res FLAC] [KPOP][Album] 현아 HyunA – I’m Not. Subscribe https://www. FLAC KPOP - Portal. 05 Tracklist: 1. Thanks for visiting. She enjoys dancing & creating K-pop journals / scrapbooks. 좋은 자료에는 "좋아요!" / 광고, 불량 자료는 "별로에요"를 눌러주세요!. Fireplace 08. Because of this, the catalog is a little smaller than 7digital or HDtracks, but there is still plenty of music to find. Advanced Search. February 16, 2021. We live in San Gabriel Valley, California. 24 MB Release Info Tracklist 01 Celebrity. The latest tweets from @kpopflac. 12)[MP3+Flac]. 5,943 likes · 15 talking about this. Jun 03, 2019 · Download Kpop Music Mp3 for Free. Our users have posted a total of 2975 messages. SANDEUL – The One And Only You (The Moon during the Day X SANDEUL) [FLAC 24bit + MP3 320 / WEB] August 7, 2021. Free Lossless Audio Codec, or simply FLAC for short, is a music file format that gives bit-perfect CD copies at only a fraction of the regular size. …read more ». J-Pop Download. BTS - You Never Walk Alone June 4, 2021 Lossless. Display results as : Posts Topics. Download J-pop Music Mp3 Rar Flac for Free! Click here in Jpop Libs. Sadao Watanabe - Viajando (1998) 01. LIBRARY OF KPOP FLAC SONG. Dance On My Own [02:37]. Period! The Criteria Sessions (2014/2020) [24bit FLAC]. KPOP STAN [Single] Lee Eun Sang - Beautiful Sunshine (MP3) Sep 1, 2021 [Single] fromis_9 - Talk & Talk (MP3) Sep 1, 2021 [Single] OH MY GIRL - Dolphin (Japanese Version) (MP3) Aug 31, 2021 [Single] BAEKHYUN - Lovers of the Red Sky OST Part. Filename D:\Music\BTS - Map of the Soul - 7 (2020) [FLAC]\17 - Respect. FLAC (/ f l æ k /; Free Lossless Audio Codec) is an audio coding format for lossless compression of digital audio, developed by the Xiph. 05 Tracklist: 1. k-Pop Hi-Res Digital Download. On this site you can download Japanese and Korean music for free. Download lossless music in flac, ape, wav formats. 5,943 likes · 15 talking about this. Inside Google. We have 838 registered users. 19 MB :: flac • bitrate: min 544. Thank you really much in advance! 11 comments. Posted by 5 days ago. [KPOP][Single] HYNN - Weekends without you (Duet with 김재환) (2021. i can't stop me 2. Inside Google. Album information. 02] Download @ ExtMatrix Part 23 Part 22 Part 21 Part 20 Part 19 Part 18. In total there is 0 user online :: 0 Registered, 0 Hidden and 0 Guests :: 1 Bot Most users ever online was 9 on Sun Apr 04, 2021 6:13 am. 久石譲 (Joe Hisaishi) – Songs of Hope- The Essential Joe Hisaishi Vol. Download MP3, FLAC, M4A AAC Korean Music. 0 % Test CRC 069D5E11 Copy CRC 069D5E11 Track not present in AccurateRip database Copy OK Track 18 Filename D:\Music\BTS - Map of the Soul - 7 (2020) [FLAC]\18 - We are Bulletproof - the. cue), lossless. Related Posts: [KPOP][Album] 태민 Taemin - Never Gonna Dance Again… [KPOP][Album] 송민호 MINO – TAKE (2020. Recently Added. k-Pop Hi-Res Digital Download. 2 X Track quality 100. Download Kpop Songs in FLAC format! FLAC KPOP. 12)[MP3+Flac]. 30 Peak level 99. rar Download MP3 320K JPOPMIX. Most users ever online was 297 on Mon Apr 26, 2021 11:39 pm. 3) Make time to change badges according to the. WOW [02:58] 04. If you want to download the entire concert in FLAC, the easiest way is to use the "Lossless zip" link located on the left side of the page where it says, "Play / Download. Websites for downloading K-Pop videos/single/album for FREE 1. 1 (MP3) Aug 31, 2021. Recently Added. [KPOP][Single] HYNN - Weekends without you (Duet with 김재환) (2021. 19 MB :: flac • bitrate: min 544. August 7, 2021. 24 bit / 96 kHz Hi-Resolution Free FLAC. 06 Tracklist: 1. The newest registered user is Raezel. Bedless Bones-After Malaise-Limited Edition-CD-FLAC-2021-FWYH Infacted Allstars-Children – A Tribute To Robert Miles-Limited Edition-CDEP-FLAC-2021-FWYH VA – Masters Of Hardcore Chapter XLIII-Magnum Opus-(CLDM2021025)-2CD-2021-SRG. 11) On this site you can download Japanese and Korean music for free. And I really want her to get out there and make some new friends. WOW [02:58] 04. We regularly post links to albums, singles, clips, concerts and television shows. Pink Up, Karachi, Pakistan. All videos are presented in high quality - DVD, Blu-ray and HDTV. FLAC K-Pop MP3 Old Hits Single [Single] Wonder Girls – So Hot. Ellie Goulding - 2015 - Delirium [Target Deluxe Edition] - FLAC [ Freak37 ] Posted by Freak37 in Music > Lossless. Our users have posted a total of 2975 messages. 30)[MP3+Flac] [KPOP][Album] 씨아이엑스 CIX - HELLO, Chapter 3 Hello,…. [FLAC 24bit/48kHz] Hi-Res Digital Download. This is similar to how Zip works, except with FLAC you will get much better compression because it is designed specifically for audio, and you can play back compressed FLAC files in your favorite player (or your car or home stereo, see. Anonymouz - Essence [FLAC / 24bit Lossless / WEB] [2021. GFRIEND - 여자친구 The 6th Mini Album 'Time for the moon night' [FLAC 24bit/48kHz] Posted 4 months ago May 8, 2021. YOASOBI - 夜に駆ける - Single Released: 2019-12-15 Genre: Pop Track List: 1. 30)[MP3+Flac] [KPOP][Album] 씨아이엑스 CIX - HELLO, Chapter 3 Hello,…. On this site you can download Japanese and Korean music for free. Pink Up, Karachi, Pakistan. Hello, I’ve been heavily into kpop for the past two 2 years and I’ve recently gotten into HiFi listening. 30)[MP3+Flac] [KPOP][Album] 씨아이엑스 CIX - HELLO, Chapter 3 Hello,…. Hi-Res / Pop / Indie / Alternative. 30 Peak level 99. So my 12 year old is into K-pop. & [01:19] 02. Top Lossless - Music torrents. KINDA BLUE, Hwa Sa - I can't make you love me [FLAC 24bit + MP3 320 / WEB] August 7, 2021. Don't miss out. The album’s lead single is the title track FIVE. If anyone has at least something I would really appreciate it! I have them all in MP3, so I don't need them. 24 bit / 96 kHz Hi-Resolution Free FLAC. (KPop, KRock) [CD, WEB] Dreamcatcher (드림캐쳐) - Discography (10 releases) - 2017-2019, FLAC (tracks+. FLAC KPOP - Portal. Hello Venus - The First Mini Album - Venus [FLAC 24bit/96kHz] Posted 3 months ago May 24, 2021. 28)[MP3+Hi-Res FLAC] [KPOP][Album] 현아 HyunA - I'm Not. 02] Download @ ExtMatrix Part 23 Part 22 Part 21 Part 20 Part 19 Part 18. Quality: FLAC 24 bit / 48 kHz (Tracks) + FLAC 16 bit / 44. We live in San Gabriel Valley, California. The recording is a binaural recording intended especially for headphone use. Free Lossless Audio Codec, or simply FLAC for short, is a music file format that gives bit-perfect CD copies at only a fraction of the regular size. I know of Bugs! And Melon but I'm having a hard time getting a working account that also has the proper streaming plan enabled. Subscribe https://www. David Bowie - Nothing has changed. [EP] U-Know (TVXQ!). cue), lossless. 14)[MP3+Hi-Res FLAC] Posted by jpn2 on 07/18/2021 Leave a comment (0) Go to comments 1. 24 MB Release Info Tracklist 01 Celebrity. [Single] KEY - Hate that… (feat. rar Download MP3 320K JPOPMIX. com/user/sharanelani?sub_confirmation=1 MP3 files are lossy. 02] Download @ ExtMatrix Part 23 Part 22 Part 21 Part 20 Part 19 Part 18 Part 17 Part 16 Part 15 Part 14 Part 13 Part 12 Part 11 Part 09 Part 10 Part 08 Part 07 Part 06 Part 05 Part 03 Part 04 Part 02 Part 01. Download Kpop Songs in FLAC format! FLAC KPOP. Who is online? In total there is 0 user online :: 0 Registered, 0 Hidden and 0 Guests :: 1 Bot. Artist: Wonder Girls / 원더걸스Title. hell in heaven 3. Related Posts: [KPOP][Album] BLACKPINK 2021 ‘THE SHOW’ LIVE… [KPOP][Album] LOONA – & (2021. [Album](DVDISO+FLAC) Suzuko Mimori 三森すずこ - 好きっ Suki (Download)[2014. 19 MB :: flac • bitrate: min 544. J-Pop Download. 2 [FLAC / 24bit Lossless / WEB] [2021. And I really want her to get out there and make some new friends. Don't miss out. WOW [02:58] 04. 5,943 likes · 15 talking about this. We regularly post links to albums, singles, clips, concerts and television shows. Butterfly 05. BLACKPINK IS THE REVOLUTION Wed Aug 01, 2018 7:44 pm fourlantino. Viajando 03. 3 comments. ) Download WEB FLAC BAND-MAID - Sense (TV Size Ver. climbgrow – 夢路の果て [FLAC 24bit + MP3 320 / WEB] September 6, 2021 青葉市子 (Ichiko Aoba) – “Windswept Adan” Concert at Bunkamura Orchard Hall (Live) [FLAC / 24bit Lossless / WEB] [2021. [FLAC 24bit/48kHz] Hi-Res Digital Download. Awards Team Application You must be able to: 1) Be 18+! 2) Dedicate quite some time per day to assign badges to members who requested for badges. GFRIEND - 여자친구 The 6th Mini Album 'Time for the moon night' [FLAC 24bit/48kHz] Posted 4 months ago May 8, 2021. Recently Added. WAV/MP3/FLAC * Last. Org Foundation, and is also the name of the free software project producing the FLAC tools, the reference software package that includes a codec implementation. I know of Bugs! And Melon but I’m having a hard time getting a working account that also has the proper streaming plan enabled. Download MP3, FLAC, M4A AAC Korean Music. Advanced Search. FLAC K-Pop MP3 Old Hits Single [Single] Wonder Girls – So Hot. Subscribe https://www. kpop flac 모음kpop flac 모음. ) Download WEB FLAC BAND-MAID - Sense (TV Size Ver. 1 kHz (Tracks) Artist: TWICE Title: Feel Special Released: 2019 Style: Pop, Dance RAR Size: 311 Mb + 188 Mb. 癒月ちょこ (Yuzuki Choco) – ChocoLove [FLAC 24bit + MP3 320 / WEB] 藤井風 (Kaze Fujii) – 燃えよ [FLAC 24bit + MP3 320 / WEB] 遊助 (Yusuke) – こむぎ [FLAC 24bit + MP3 320 / WEB]. Fireplace 08. 27] MP3 320KBPS FLAC / Lossless / WEB / 24bit/48kHz - 2021 47. KINDA BLUE, Hwa Sa - I can't make you love me [FLAC 24bit + MP3 320 / WEB] August 7, 2021. Green Day - 21st Century Breakdown (2009) [24bit 96kHz FLAC] Download. WOW [02:58] 04. Be Honest [03:16] 05. Artist: Girls' Generation (SNSD) Title: Discography Year Of Release: 2007-2017 Genre: Kpop/ Jpop Quality: FLAC (Tracks, Image+. Hello Venus - The First Mini Album - Venus [FLAC 24bit/96kHz] Posted 3 months ago May 24, 2021. 16Language: KoreanFile Compression Type: rarBit…. rar Download MP3 320K JPOPMIX. The newest registered user is Raezel. Download Kpop Songs in FLAC format! FLAC KPOP. Scrobble songs to get recommendations on tracks you'll love. 5,943 likes · 15 talking about this. 癒月ちょこ (Yuzuki Choco) – ChocoLove [FLAC 24bit + MP3 320 / WEB] 藤井風 (Kaze Fujii) – 燃えよ [FLAC 24bit + MP3 320 / WEB] 遊助 (Yusuke) – こむぎ [FLAC 24bit + MP3 320 / WEB]. 19 MB :: flac • bitrate: min 544. Jun 03, 2019 · Download Kpop Music Mp3 for Free. Im still noob in download/ get sauce for kpop flac song or any genre , hope you guys can share it 🙇🏻‍♂️. Don't Worry 'bout Me 10. Latest topics. believer 7. [Album](DVDISO+FLAC) Suzuko Mimori 三森すずこ – 好きっ Suki (Download)[2014. 28)[MP3+Hi-Res FLAC] [KPOP][Album] 현아 HyunA - I'm Not. This means they have lost information in an effort. Dance On My Own [02:37]. 05 Tracklist: 1. 5,943 likes · 15 talking about this. It was released by. We have 838 registered users. All content in this blog is for promotional purpose only, we don't responsibly for all users do. [FLAC / 24bit Lossless / WEB] [2021. rar Download MP3 32…. up no more 4. Display results as : Posts Topics. * Ektoplazm is a source for awesome quality electronic music. All videos are presented in high quality - DVD, Blu-ray and HDTV. Download Kpop Songs in FLAC format! Search. Fights acne - Makes skin smooth, soft and flawless - Improves skin texture - Clears out pigmentation - Helps with uneven skin tone - Makes your makeup glide on better. Advanced Search. 24 MB Release Info Tracklist 01 Celebrity. Hello, I've been heavily into kpop for the past two 2 years and I've recently gotten into HiFi listening. Artist: Kang Daniel / 강다니엘, Title: ParanoiaGenre: K-Pop, DanceRelease Date: 2021. depend on you 12. cue), lossless Posted by xPerf3cti0n in Music > Lossless. IU 아이유 - Celebrity [2021. I've been searching for the discography of the K-Pop Girl Group Dreamcatcher in FLAC for a long time. HD Unboxing for Pink Pink Up Album. 30)[MP3+Flac] [KPOP][Album] 씨아이엑스 CIX - HELLO, Chapter 3 Hello,…. Please buy official album to support the artists. Be Honest [03:16] 05. I was wondering, do any of you know a website where I can purchase K-Pop music in a downloadable lossless (FLAC) format? My budget is limited and I don't have much space in my room, so I'd like to avoid buying physical CDs as much as possible. cue, log,covers) Total Size: 6,15 Gb. A large collection of albums and collections of different genres of high quality lossless. Related Posts: [KPOP][Album] BLACKPINK 2021 ‘THE SHOW’ LIVE… [KPOP][Album] LOONA – & (2021. 20] FANTASTICS from EXILE TRIBE - FANTASTIC VOYAGE [FLAC / 24bit Lossless / WEB] [2021. BLACKPINK IS THE REVOLUTION Wed Aug 01, 2018 7:44 pm fourlantino. IZ*ONE – One-reeler / Act IV [FLAC 24bit/48kHz] Posted 3 months ago June 10, 2021. Latest topics. Green Day - American Idiot (2004) [24bit 192kHz FLAC] Download. Artist: Girls' Generation (SNSD) Title: Discography Year Of Release: 2007-2017 Genre: Kpop/ Jpop Quality: FLAC (Tracks, Image+. BLACKPINK IS THE. BTS – The Most Beautiful Moment In Life : Young Forever []. Toko Miura - Tsuukaten 三浦透子 - 通過点 Audio Format: FLAC Lossless / MP3 320K / RAR Release Date: 2021. 27] MP3 320KBPS FLAC / Lossless / WEB / 24bit/48kHz - 2021 47. [kpop][album] 블랙핑크 blackpink - the album… [KPOP][Album] NCT DREAM - Hot Sauce (2021. 24 bit / 96 kHz Hi-Resolution Free FLAC. [Album](DVDISO+FLAC) Suzuko Mimori 三森すずこ - 好きっ Suki (Download)[2014. Como Vai! 11. wav Pre-gap length 0:00:01. IZ*ONE – One-reeler / Act IV [FLAC 24bit/48kHz] Posted 3 months ago June 10, 2021. [FLAC 24bit/96kHz] Hi-Res Digital Download. 12] 선물 (Present) (FLAC) [2017. BLACKPINK IS THE. Download Kpop Songs in FLAC format! FLAC KPOP. Some artists and services choose to put their music up for free, and they do so in a way that allows you to download it legally. Scrobble songs to get recommendations on tracks you'll love. We have 838 registered users. Inside Google. Love Song Download Hi-Res 24bit/96kHz Uru - Love Song (pre-release) [24 ⁄ 96]. ProStudio Masters doesn’t sell MP3s and skips over 16-bit music in general, instead offering 24-bit files in AIFF, FLAC, MQA, and DSD / DSF formats. I’ve been looking to find a place where I can stream/buy FLAC files of Kpop songs. August 7, 2021. (KPop, KRock) [CD, WEB] Dreamcatcher (드림캐쳐) - Discography (10 releases) - 2017-2019, FLAC (tracks+. & [01:19] 02. The latest tweets from @kpopflac. Afrozil 02. Download J-pop Music Mp3 Rar Flac for Free! Click here in Jpop Libs. 30] Hyomin - Make Up (flac) [2017. In total there is 0 user online :: 0 Registered, 0 Hidden and 0 Guests :: 1 Bot Most users ever online was 9 on Sun Apr 04, 2021 6:13 am. WJSN [FLAC_CD] [2017. No users have a birthday today. Advanced Search. It works with a lot of smartphones (including the iPhone), and PMP or portable music player models. 30] Hyomin - Make Up (flac) [2017. Free Lossless Audio Codec, or simply FLAC for short, is a music file format that gives bit-perfect CD copies at only a fraction of the regular size. I’ve been looking to find a place where I can stream/buy FLAC files of Kpop songs. LIBRARY OF KPOP FLAC SONG. Viajando 03. All content in this blog is for promotional purpose only, we don't responsibly for all users do. Butterfly 05. Doce Seducao (vocal version) Download album • 355. David Bowie - Nothing has changed. If you want FLAC downloads you either have to purchase individual songs at 1,800krw (~$1. SANDEUL – The One And Only You (The Moon during the Day X SANDEUL) [FLAC 24bit + MP3 320 / WEB] August 7, 2021. I've been looking to find a place where I can stream/buy FLAC files of Kpop songs. i can't stop me 2. So my 12 year old is into K-pop. This means they have lost information in an effort. Filename D:\Music\BTS - Map of the Soul - 7 (2020) [FLAC]\17 - Respect. It was released by. The latest tweets from @kpopflac. Kpop Download HUL KPOP. ONEW – You Are My Spring OST Part 7 [FLAC 24bit + MP3 320 / WEB] August 7, 2021. 3 GB; RAR / 149 MB Tracklist: Download →. 2 [FLAC / 24bit Lossless / WEB] [2021. Download RAR/MP3 320kbps/FLAC lossless/AAC 256kbps/ALAC lossless/ZIP. 久石譲 (Joe Hisaishi) - Songs of Hope- The Essential Joe Hisaishi Vol. Im still noob in download/ get sauce for kpop flac song or any genre , hope you guys can share it 🙇🏻‍♂️. All videos are presented in high quality - DVD, Blu-ray and HDTV. 28)[MP3+Hi-Res FLAC] [KPOP][Album] 현아 HyunA - I'm Not. TAEYEON – Purpose – The 2nd Album 29 October, 2019 [Mini Album] MONSTA X – ‘FOLLOW’ FIND YOU (Mp3) 28 October, 2019. …read more ». 04] WJSN - From. wav Pre-gap length 0:00:01. Most users ever online was 297 on Mon Apr 26, 2021 11:39 pm. Doce Seducao (instrumental version) 09. Wallpaper: Kpop Down 320K Flac [후방]여고딩들의 아슬아슬한 노출 avec @F5Qr5; Décoration D'Intérieur February 10, 2021. 1 (MP3) Aug 31, 2021. Kpop Download HUL KPOP. Advanced Search. 25 from 10000. Period! The Criteria Sessions (2014/2020) [24bit FLAC]. If you want FLAC downloads you either have to purchase individual songs at 1,800krw (~$1. Album information. All music Pia Fraus. Download Kpop Songs in FLAC format! FLAC KPOP. It is available in multiple formats on that page, including FLAC. 癒月ちょこ (Yuzuki Choco) - ChocoLove [FLAC 24bit + MP3 320 / WEB] 藤井風 (Kaze Fujii) - 燃えよ [FLAC 24bit + MP3 320 / WEB] 遊助 (Yusuke) - こむぎ [FLAC 24bit + MP3 320 / WEB]. Posted by 5 days ago. We regularly post links to albums, singles, clips, concerts and television shows. (KPop, KRock) [CD, WEB] Dreamcatcher (드림캐쳐) - Discography (10 releases) - 2017-2019, FLAC (tracks+. Awards Team Application You must be able to: 1) Be 18+! 2) Dedicate quite some time per day to assign badges to members who requested for badges. We are K-Pop lovers who want to share with you all we have. Green Day - American Idiot (2004) [24bit 192kHz FLAC] Download. LIBRARY OF KPOP FLAC SONG. Ellie Goulding - 2015 - Delirium [Target Deluxe Edition] - FLAC [ Freak37 ] Posted by Freak37 in Music > Lossless. Guns N' Roses - Appetite For Destruction. February 16, 2021. Green Day - American Idiot (2004) [24bit 192kHz FLAC] Download. 23] August 30, 2021 [Video] Patoranking - Black Girl Magic August 30, 2021 Bella Shmurda x Popcaan - So Cold August 30, 2021. Audio: FLAC 24 bit / 44. Flac kpop Flac kpop. WOW [02:58] 04. Hello Venus - The First Mini Album - Venus [FLAC 24bit/96kHz] Posted 3 months ago May 24, 2021. Advanced Search. 02] Download @ ExtMatrix Part 23 Part 22 Part 21 Part 20 Part 19 Part 18 Part 17 Part 16 Part 15 Part 14 Part 13 Part 12 Part 11 Part 09 Part 10 Part 08 Part 07 Part 06 Part 05 Part 03 Part 04 Part 02 Part 01. wav Pre-gap length 0:00:01. Kpop Download HUL KPOP. Download RAR/MP3 320kbps/FLAC lossless/AAC 256kbps/ALAC lossless/ZIP. do what we like 5. com/user/sharanelani?sub_confirmation=1 MP3 files are lossy. FLAC format music albums and tracks download free. All videos are presented in high quality - DVD, Blu-ray and HDTV. cue), lossless. Main navigation Menu. 30)[MP3+Flac] [KPOP][Album] 씨아이엑스 CIX - HELLO, Chapter 3 Hello,…. BAND-MAID - Sense(TV Size Ver. cue), lossless » Восточноазиатская поп. Wallpaper: Kpop Down 320K Flac [후방]여고딩들의 아슬아슬한 노출 avec @F5Qr5; Décoration D'Intérieur February 10, 2021. In total there is 0 user online :: 0 Registered, 0 Hidden and 0 Guests :: 1 Bot Most users ever online was 9 on Sun Apr 04, 2021 6:13 am. 30 Peak level 99. WJSN [FLAC_CD] [2017. LIBRARY OF KPOP FLAC SONG. kpop flac 모음kpop flac 모음. Subscribe https://www. Download FLAC Download MP3. up no more 4. 10)[MP3+Flac] [Album] TREASURE - The First Step Treasure Effect…. Download Kpop Songs in FLAC format! FLAC KPOP. 30] Hyomin - Make Up (flac) [2017. We have 838 registered users. 12)[MP3+Flac]. 05 Tracklist: 1. By admin On April 8, 2018. 3) Make time to change badges according to the. Some artists and services choose to put their music up for free, and they do so in a way that allows you to download it legally. ONEW - You Are My Spring OST Part 7 [FLAC 24bit + MP3 320 / WEB] August 7, 2021. Doce Seducao (vocal version) Download album • 355. The album’s lead single is the title track FIVE. 久石譲 (Joe Hisaishi) – Songs of Hope- The Essential Joe Hisaishi Vol. BTS - Map Of The Soul: Persona June 4, 2021 Lossless. hell in heaven 3. 10 sites for buying lossless music in FLAC!😎. Sadao Watanabe - Viajando (1998) 01. 0 % Test CRC 069D5E11 Copy CRC 069D5E11 Track not present in AccurateRip database Copy OK Track 18 Filename D:\Music\BTS - Map of the Soul - 7 (2020) [FLAC]\18 - We are Bulletproof - the. Top Lossless - Music torrents. 28)[MP3+Hi-Res FLAC] [KPOP][Album] 현아 HyunA – I’m Not. LIBRARY OF KPOP FLAC SONG. Period! The Criteria Sessions (2014/2020) [24bit FLAC]. All videos are presented in high quality – DVD, Blu-ray and HDTV. 12)[MP3+Flac]. Don't miss out. do what we like 5. Related Posts: [KPOP][Album] BLACKPINK 2021 ‘THE SHOW’ LIVE… [KPOP][Album] LOONA – & (2021. Download Kpop Songs in FLAC format! Search. Como Vai! 11. 10 sites for buying lossless music in FLAC!😎. 24 MB Release Info Tracklist 01 Celebrity. Most users ever online was 297 on Mon Apr 26, 2021 11:39 pm. 1 kHz (Tracks) Performer: Pia Fraus Album: Now You Know It Still Feels the Same Published: 2021 Genre: Alternative, Indie Pop, Dream Pop, Shoegaze File Size: 579 Mb. rar Download MP3 32…. …read more ». cue, log,covers) Total Size: 6,15 Gb. ProStudio Masters doesn’t sell MP3s and skips over 16-bit music in general, instead offering 24-bit files in AIFF, FLAC, MQA, and DSD / DSF formats. Related Posts: [KPOP][Album] BLACKPINK 2021 ‘THE SHOW’ LIVE… [KPOP][Album] LOONA – & (2021. (KPop/JPop) Girls' Generation (SNSD) - Дискография (16 Альбомов, 10 Синглов), 2007-2015, FLAC (tracks+. February 16, 2021. We regularly post links to albums, singles, clips, concerts and television shows. Don't Worry 'bout Me 10. Kpopsource - International kpop forum community. 16Language: KoreanFile Compression Type: rarBit…. FLAC KPOP - Portal. [kpop][album] 블랙핑크 blackpink - the album… [KPOP][Album] NCT DREAM - Hot Sauce (2021. Im still noob in download/ get sauce for kpop flac song or any genre , hope you guys can share it 🙇🏻‍♂️. up no more 4. Wallpaper: Kpop Down 320K Flac [후방]여고딩들의 아슬아슬한 노출 avec @F5Qr5; Décoration D'Intérieur February 10, 2021. A large collection of albums and collections of different genres of high quality lossless. Don't miss out. Afrozil 02. Anonymouz - Essence [FLAC / 24bit Lossless / WEB] [2021. WAV/MP3/FLAC * Last. 1 kHz (Tracks) Artist: TWICE Title: Feel Special Released: 2019 Style: Pop, Dance RAR Size: 311 Mb + 188 Mb. k-Pop Hi-Res Digital Download. Download Kpop Songs in FLAC format! Search. Dance Digital Booklet EP / Mini Album featured FLAC iTunes K-Pop MP3 New Release. February 16, 2021. rar Download MP3 320K JPOPMIX. Little Waltz for M 07. hell in heaven 3. TAEYEON) (MP3 + iTunes Plus AAC M4A) August 30, 2021. BTS - You Never Walk Alone June 4, 2021 Lossless. Some artists and services choose to put their music up for free, and they do so in a way that allows you to download it legally. 12)[MP3+Flac]. 30 Peak level 99. Kpopsource - International kpop forum community. Download Kpop Songs in FLAC format! Search. KINDA BLUE, Hwa Sa – I can’t make you love me [FLAC 24bit + MP3 320 / WEB] August 7, 2021. Awards Team Application You must be able to: 1) Be 18+! 2) Dedicate quite some time per day to assign badges to members who requested for badges. ONEW - You Are My Spring OST Part 7 [FLAC 24bit + MP3 320 / WEB] August 7, 2021. Our users have posted a total of 2975 messages. Doce Seducao (vocal version) Download album • 355. On this site you can download Japanese and Korean music for free. She enjoys dancing & creating K-pop journals / scrapbooks. Kpop Download HUL KPOP. DOWNLOAD MP3-320kbps, FLAC, WAV, ITUNES PLUS AAC M4A Korean Music. Guardians of the Galaxy Awesome. handle it 11. Little Waltz for M 07. Bedless Bones-After Malaise-Limited Edition-CD-FLAC-2021-FWYH Infacted Allstars-Children – A Tribute To Robert Miles-Limited Edition-CDEP-FLAC-2021-FWYH VA – Masters Of Hardcore Chapter XLIII-Magnum Opus-(CLDM2021025)-2CD-2021-SRG. Org Foundation, and is also the name of the free software project producing the FLAC tools, the reference software package that includes a codec implementation. All videos are presented in high quality - DVD, Blu-ray and HDTV. Guns N' Roses - Appetite For Destruction. 坂本真綾 - everywhere Released: 2016 Genre: Pop Bitrate: FLAC 24bit 96khz & MP3 V0 VBR RAR / 2. 24 bit / 96 kHz Hi-Resolution Free FLAC. 12)[MP3+Flac]. David Bowie - Nothing has changed. (KPop, KRock) [CD, WEB] Dreamcatcher (드림캐쳐) - Discography (10 releases) - 2017-2019, FLAC (tracks+.